astro-screen.co.uk - The Largest Bittorent System Login   |    Register
Latest Articles
Most searched
Hot torrents
Movie Torrents
View Torrent Info: Mowgli: Legend of the Jungle (2018) [720p] [YTS] [YIFY]
View Torrent Info: Asher (2018) [720p] [YTS] [YIFY]
View Torrent Info: Under the Silver Lake (2018) [720p] [YTS] [YIFY]
View Torrent Info: The Mermaid: Lake of the Dead (2018) [720p] [YTS] [YIFY]
View Torrent Info: Alla vet (2018) [720p] [YTS] [YIFY]
View Torrent Info: Time Jumpers (2018) [720p] [YTS] [YIFY]
View Torrent Info: Back Roads (2018) [720p] [YTS] [YIFY]
View Torrent Info: Born Racer (2018) [720p] [YTS] [YIFY]
View Torrent Info: Dumplin' (2018) [720p] [YTS] [YIFY]
View Torrent Info: Cinderella: The Enchanted Beginning (2018) [720p] [YTS] [YIFY]
Hot torrents
TV Torrents
View Torrent Info: The.Flash.2014.S05E08.HDTV.x264-KILLERS[eztv]
View Torrent Info: Arrow.S07E08.HDTV.x264-SVA[eztv]
View Torrent Info: The.Big.Bang.Theory.S12E10.HDTV.x264-SVA[eztv]
View Torrent Info: DCs.Legends.of.Tomorrow.S04E07.HDTV.x264-SVA[eztv]
View Torrent Info: The.Good.Doctor.S02E10.HDTV.x264-SVA[eztv]
View Torrent Info: Vikings.S05E12.WEBRip.x264-ION10[eztv]
View Torrent Info: Supernatural.S14E08.HDTV.x264-SVA[eztv]
View Torrent Info: the.gifted.s02e09.web.x264-tbs[eztv]
View Torrent Info: Young.Sheldon.S02E10.HDTV.x264-KILLERS[eztv]
View Torrent Info: lethal.weapon.s03e09.web.x264-tbs[eztv]
astro-screen.co.uk > Categories > Movies torrents > Biography torrents


Browse Movies torrents

Lion.2016.720p.BluRay.x264-x0r[PRiME] torrent



Download torrent: Magnet link Bookmark Torrent: Lion.2016.720p.BluRay.x264-x0r[PRiME] Download Lion.2016.720p.BluRay.x264-x0r[PRiME] torrent (magnet link)
Info hash: 61E074DC3BDA9A3CE7627DF3787D5B3135237F8C
Category: Categories > Movies torrents > Biography torrents
Trackers:
18    View all torrent trackers >
Health:
 seeds: 26 ,  leechers: 17 |  Update >
Torrent language:  
Total Size: 2.59 GB
Torrent status: Added by trusted uploader Added by trusted uploader Trusted Uploader Site Friend Superman Sun
Uploader: Trusted Uploader Site Friend Superman Sun
 

Download Lion.2016.720p.BluRay.x264-x0r[PRiME] via Magnet Link




Torrent Description


Lion.2016.720p.BluRay.x264-x0r[PRiME]

ImDb: http://www.imdb.com/title/tt3741834



Complete name : Lion.2016.720p.BluRay.x264-x0r[TRAILER-Theatrical Trailer][PRiME].mov
Format : MPEG-4
Format profile : QuickTime
Codec ID : qt 2005.03 (qt )
File size : 98.9 MiB
Duration : 2 min 26 s
Overall bit rate : 5 678 kb/s
Encoded date : UTC 2016-08-25 03:19:03
Tagged date : UTC 2016-08-25 03:19:13
Writing library : Apple QuickTime
Media/UUID : CEACBD46-FCCE-4B5F-8972-9578D4FD7C12

Video
ID : 1
Format : AVC
Format/Info : Advanced Video Codec
Format profile : [email protected]
Format settings, CABAC : No
Format settings, ReFrames : 2 frames
Codec ID : avc1
Codec ID/Info : Advanced Video Coding
Duration : 2 min 26 s
Bit rate : 5 577 kb/s
Width : 1 280 pixels
Height : 544 pixels
Display aspect ratio : 2.35:1
Frame rate mode : Constant
Frame rate : 24.000 FPS
Color space : YUV
Chroma subsampling : 4:2:0
Bit depth : 8 bits
Scan type : Progressive
Bits/(Pixel*Frame) : 0.334
Stream size : 97.1 MiB (98%)
Language : English
Encoded date : UTC 2016-08-25 03:19:02
Tagged date : UTC 2016-08-25 03:19:13
Color range : Limited
Color primaries : BT.709
Transfer characteristics : BT.709
Matrix coefficients : BT.709

Audio
ID : 3
Format : AAC
Format/Info : Advanced Audio Codec
Format profile : LC
Codec ID : 40
Duration : 2 min 26 s
Source duration : 2 min 26 s
Bit rate mode : Constant
Bit rate : 96.0 kb/s
Channel(s) : 2 channels
Channel positions : Front: L R
Sampling rate : 48.0 kHz
Frame rate : 46.875 FPS (1024 spf)
Compression mode : Lossy
Stream size : 1.66 MiB (2%)
Source stream size : 1.66 MiB (2%)
Language : English
Encoded date : UTC 2016-08-25 03:19:03
Tagged date : UTC 2016-08-25 03:19:13

Other
ID : 2
Type : Time code
Format : QuickTime TC
Duration : 2 min 26 s
Time code of first frame : 00:00:00:00
Time code, striped : Yes
Language : English
Encoded date : UTC 2016-08-25 03:19:02
Tagged date : UTC 2016-08-25 03:19:13
Bit rate mode : CBR




Click Image To View Full Size


Click To View Screenshot
Click To View Screenshot
Click To View Screenshot



#Simmoncelli -> To avoid fakes, ALWAYS check that the torrent was added on astro-screen.co.uk by Simmoncelli

http://astro-screen.co.uk/




Comments (please add your comment)
No comments



Home - Browse Torrents - Upload Torrent - Stat - Forum - FAQ - Login
astro-screen.co.uk is in compliance with copyrights
2006-2018 astro-screen.co.uk
SitemapHandbags HOT | Communication Competence - 1883 Words | The Sound of S season 12 episode 09 Embrace - Legendado Filme 2016 Torrent Documentário 720p Embrace - Legendado | Нил Бхупалам | Pointed Beading Bow Suede Woman Pumps