astro-screen.co.uk - The Largest Bittorent System Login   |    Register
Latest Articles
Most searched
Hot torrents
Movie Torrents
View Torrent Info: Venom (2018) [720p] [YTS] [YIFY]
View Torrent Info: Smallfoot (2018) [720p] [YTS] [YIFY]
View Torrent Info: The Predator (2018) [720p] [YTS] [YIFY]
View Torrent Info: The House with a Clock in Its Walls (2018) [720p] [YTS] [YIFY]
View Torrent Info: The Bouncer (2018) [720p] [YTS] [YIFY]
View Torrent Info: Blood Brother (2018) [720p] [YTS] [YIFY]
View Torrent Info: The Immortal Wars (2018) [720p] [YTS] [YIFY]
View Torrent Info: Swiped (2018) [720p] [YTS] [YIFY]
View Torrent Info: [Cargo] (2018) [720p] [YTS] [YIFY]
View Torrent Info: Elliot the Littlest Reindeer (2018) [720p] [YTS] [YIFY]
Hot torrents
TV Torrents
View Torrent Info: The.Flash.2014.S05E07.HDTV.x264-SVA[eztv]
View Torrent Info: Arrow.S07E07.HDTV.x264-SVA[eztv]
View Torrent Info: DCs.Legends.of.Tomorrow.S04E06.HDTV.x264-SVA[eztv]
View Torrent Info: lethal.weapon.s03e08.web.x264-tbs[eztv]
View Torrent Info: Supergirl.S04E08.HDTV.x264-SVA[eztv]
View Torrent Info: The.Good.Doctor.S02E09.HDTV.x264-SVA[eztv]
View Torrent Info: Supernatural.S14E07.HDTV.x264-SVA[eztv]
View Torrent Info: Manifest.S01E09.HDTV.x264-KILLERS[eztv]
View Torrent Info: The.Gifted.S02E08.WEB.x264-TBS[eztv]
View Torrent Info: Legacies.S01E05.HDTV.x264-SVA[eztv]
astro-screen.co.uk > Categories > Movies torrents > Biography torrents


Browse Movies torrents

Whiskey Tango Foxtrot(2016)MPEG-4[DaScubaDude] torrent



Download torrent: Magnet link Bookmark Torrent: Whiskey Tango Foxtrot(2016)MPEG-4[DaScubaDude] Download Whiskey Tango Foxtrot(2016)MPEG-4[DaScubaDude] torrent (magnet link)
Info hash: F1C99BCDA2A669492EF56FE809150D2C81802526
Category: Categories > Movies torrents > Biography torrents
Trackers:
8    View all torrent trackers >
Health:
 seeds: 6 ,  leechers: 1 |  Update >
Torrent language:  
Total Size: 1.04 GB
Torrent status: Added by trusted uploader Added by trusted uploader Trusted Uploader Site Friend Superman Sun
Uploader: Trusted Uploader Site Friend Superman Sun
 

Download Whiskey Tango Foxtrot(2016)MPEG-4[DaScubaDude] via Magnet Link




Torrent Description


[youtube]XLpn607wLLQ[/youtube]
Whiskey Tango Foxtrot (2016)
R | 1h 52min | Biography, Comedy, Drama | 4 March 2016 (USA)
A journalist recounts her wartime coverage in Afghanistan.
Directors: Glenn Ficarra, John Requa
Writers: Robert Carlock (screenplay), Kim Barker (based on the book "The Taliban Shuffle: Strange Days in Afghanistan and Pakistan" by)
Stars: Tina Fey, Margot Robbie, Martin Freeman

General
Complete name : Whiskey Tango Foxtrot\WHISKEY_TANGO_FOXTROT_Title1.mp4
Format : MPEG-4
Format profile : Base Media
Codec ID : isom (isom/iso2/avc1/mp41)
File size : 1.04 GiB
Duration : 1 h 51 min
Overall bit rate : 1 334 kb/s
Movie name : WHISKEY_TANGO_FOXTROT
Genre : Comedy
Writing application : Lavf54.6.100

Video
ID : 1
Format : AVC
Format/Info : Advanced Video Codec
Format profile : [email protected]
Format settings, CABAC : No
Format settings, ReFrames : 6 frames
Codec ID : avc1
Codec ID/Info : Advanced Video Coding
Duration : 1 h 51 min
Bit rate : 1 199 kb/s
Width : 720 pixels
Height : 404 pixels
Display aspect ratio : 16:9
Frame rate mode : Constant
Frame rate : 29.970 (30000/1001) FPS
Color space : YUV
Chroma subsampling : 4:2:0
Bit depth : 8 bits
Scan type : Progressive
Bits/(Pixel*Frame) : 0.138
Stream size : 958 MiB (90%)

Audio
ID : 2
Format : AAC
Format/Info : Advanced Audio Codec
Format profile : LC
Codec ID : 40
Duration : 1 h 51 min
Bit rate mode : Constant
Bit rate : 128 kb/s
Channel(s) : 2 channels
Channel positions : Front: L R
Sampling rate : 44.1 kHz
Frame rate : 43.066 FPS (1024 spf)
Compression mode : Lossy
Stream size : 102 MiB (10%)
Default : Yes
Alternate group : 1



#Dascubadude -> To avoid fakes, ALWAYS check that the torrent was added on astro-screen.co.uk by Dascubadude

http://astro-screen.co.uk/




Comments (please add your comment)
No comments



Home - Browse Torrents - Upload Torrent - Stat - Forum - FAQ - Login
astro-screen.co.uk is in compliance with copyrights
2006-2018 astro-screen.co.uk
SitemapRecommended Subscription VPN's | Love Is Over | svezia81 Tung Wah Charity Show 2018 - 歡樂滿東華2018 - Episode 02 | Born to Kill – Minissérie | Kekkai Sensen Beyond