astro-screen.co.uk - The Largest Bittorent System Login   |    Register
Latest Articles
Most searched
Hot torrents
Movie Torrents
View Torrent Info: Incredibles 2 (2018) [720p] [YTS] [YIFY]
View Torrent Info: Alpha (2018) [720p] [YTS] [YIFY]
View Torrent Info: A-X-L (2018) [720p] [YTS] [YIFY]
View Torrent Info: Christopher Robin (2018) [720p] [YTS] [YIFY]
View Torrent Info: BlacKkKlansman (2018) [720p] [YTS] [YIFY]
View Torrent Info: The Bombing (2018) [720p] [YTS] [YIFY]
View Torrent Info: The Witch in the Window (2018) [720p] [YTS] [YIFY]
View Torrent Info: The Scorpion King: Book of Souls (2018) [720p] [YTS] [YIFY]
View Torrent Info: Juliet, Naked (2018) [720p] [YTS] [YIFY]
View Torrent Info: An Interview with God (2018) [720p] [YTS] [YIFY]
Hot torrents
TV Torrents
View Torrent Info: Supergirl.S04E03.HDTV.x264-SVA[eztv]
View Torrent Info: The.Walking.Dead.S09E04.HDTV.x264-KILLERS[eztv]
View Torrent Info: Titans.2018.S01E03.WEB.x264-PHOENiX[eztv]
View Torrent Info: the.last.ship.s05e08.webrip.x264-tbs[eztv]
View Torrent Info: Arrow.S07E02.HDTV.x264-SVA[eztv]
View Torrent Info: DCs.Legends.of.Tomorrow.S04E01.HDTV.x264-SVA[eztv]
View Torrent Info: The.Flash.2014.S05E03.HDTV.x264-SVA[eztv]
View Torrent Info: The.Big.Bang.Theory.S12E06.HDTV.x264-SVA[eztv]
View Torrent Info: Charmed.2018.S01E03.HDTV.x264-CRAVERS[eztv]
View Torrent Info: NCIS.Los.Angeles.S10E05.HDTV.x264-SVA[eztv]
astro-screen.co.uk > Categories > Movies torrents > Biography torrents


Browse Movies torrents

The.Last.Princess.2016.LIMITED.BDRip.x264-KEBAP[PRiME] torrent



Download torrent: Magnet link Bookmark Torrent: The.Last.Princess.2016.LIMITED.BDRip.x264-KEBAP[PRiME] Download The.Last.Princess.2016.LIMITED.BDRip.x264-KEBAP[PRiME] torrent (magnet link)
Info hash: B68CF23651C74A9D42F0F4646F7AC28CBEA7E67C
Category: Categories > Movies torrents > Biography torrents
Trackers:
18    View all torrent trackers >
Health:
 seeds: 11 ,  leechers: 7 |  Update >
Torrent language:  
Total Size: 717.94 MB
Torrent status: Added by trusted uploader Added by trusted uploader Trusted Uploader Site Friend Superman Sun
Uploader: Trusted Uploader Site Friend Superman Sun
 

Download The.Last.Princess.2016.LIMITED.BDRip.x264-KEBAP[PRiME] via Magnet Link




Torrent Description


The.Last.Princess.2016.LIMITED.BDRip.x264-KEBAP[PRiME]

ImDb: http://www.imdb.com/title/tt5947416



Complete name : kebap-thelastprincess2016[PRiME].mkv
Format : Matroska
Format version : Version 4 / Version 2
File size : 718 MiB
Duration : 2 h 6 min
Overall bit rate : 791 kb/s
Encoded date : UTC 2017-04-27 10:54:35
Writing application : mkvmerge v9.9.0 ('Pick Up') 64bit
Writing library : libebml v1.3.4 + libmatroska v1.4.5

Video
ID : 1
Format : AVC
Format/Info : Advanced Video Codec
Format profile : [email protected]
Format settings, CABAC : Yes
Format settings, ReFrames : 5 frames
Codec ID : V_MPEG4/ISO/AVC
Duration : 2 h 6 min
Bit rate : 629 kb/s
Width : 720 pixels
Height : 302 pixels
Display aspect ratio : 2.40:1
Frame rate mode : Constant
Frame rate : 23.976 (24000/1001) FPS
Color space : YUV
Chroma subsampling : 4:2:0
Bit depth : 8 bits
Scan type : Progressive
Bits/(Pixel*Frame) : 0.121
Stream size : 571 MiB (80%)
Writing library : x264 core 148 r2762 90a61ec
Encoding settings : cabac=1 / ref=5 / deblock=1:0:0 / analyse=0x3:0x113 / me=umh / subme=8 / psy=1 / psy_rd=1.00:0.00 / mixed_ref=1 / me_range=16 / chroma_me=1 / trellis=2 / 8x8dct=1 / cqm=0 / deadzone=21,11 / fast_pskip=0 / chroma_qp_offset=-2 / threads=9 / lookahead_threads=1 / sliced_threads=0 / nr=0 / decimate=1 / interlaced=0 / bluray_compat=0 / constrained_intra=0 / bframes=3 / b_pyramid=2 / b_adapt=1 / b_bias=0 / direct=3 / weightb=1 / open_gop=0 / weightp=2 / keyint=240 / keyint_min=23 / scenecut=40 / intra_refresh=0 / rc_lookahead=50 / rc=crf / mbtree=1 / crf=19.0 / qcomp=0.60 / qpmin=0 / qpmax=69 / qpstep=4 / ip_ratio=1.40 / aq=1:1.00
Language : English
Default : Yes
Forced : No
Color range : Limited
Matrix coefficients : BT.709

Audio
ID : 2
Format : AAC
Format/Info : Advanced Audio Codec
Format profile : LC
Codec ID : A_AAC
Duration : 2 h 6 min
Bit rate : 159 kb/s
Channel(s) : 2 channels
Channel positions : Front: L R
Sampling rate : 48.0 kHz
Frame rate : 46.875 FPS (1024 spf)
Compression mode : Lossy
Delay relative to video : 9 ms
Stream size : 145 MiB (20%)
Language : Korean
Default : Yes
Forced : No

Text
ID : 3
Format : UTF-8
Codec ID : S_TEXT/UTF8
Codec ID/Info : UTF-8 Plain Text
Duration : 2 h 2 min
Bit rate : 36 b/s
Count of elements : 1123
Stream size : 33.1 KiB (0%)
Language : English
Default : Yes
Forced : No

Menu #1
00:00:00.000 : en:00:00:00.000
00:10:47.981 : en:00:10:47.981
00:21:08.100 : en:00:21:08.100
00:29:07.579 : en:00:29:07.579
00:36:15.715 : en:00:36:15.715
00:44:47.268 : en:00:44:47.268
00:50:02.249 : en:00:50:02.249
01:02:25.700 : en:01:02:25.700
01:15:05.376 : en:01:15:05.376
01:21:24.505 : en:01:21:24.505
01:28:16.917 : en:01:28:16.917
01:36:00.296 : en:01:36:00.296
01:40:57.885 : en:01:40:57.885
01:48:41.515 : en:01:48:41.515
01:57:11.274 : en:01:57:11.274
02:00:54.831 : en:02:00:54.831

Menu #2
00:00:00.054 : en:00:00:00.054




Click Image To View Full Size


Click To View Screenshot
Click To View Screenshot
Click To View Screenshot



#Simmoncelli -> To avoid fakes, ALWAYS check that the torrent was added on astro-screen.co.uk by Simmoncelli

http://astro-screen.co.uk/




Comments (please add your comment)
No comments



Home - Browse Torrents - Upload Torrent - Stat - Forum - FAQ - Login
astro-screen.co.uk is in compliance with copyrights
2006-2018 astro-screen.co.uk
SitemapTire Wheel Balancing Weights Stick On .25 oz pieces (2) BOX 720 pcs 180 OZ | Taylor Swift - Delicate | Câmera de esportes e ação Más detalles | Assistir Os Jovens Titãs em Ação Nos Cinemas Dublado Online | 1 Satz Kompletträder 4.80 / 4.00-8 62M 8-Zoll Anhänger Rad Reifen Felge Delitire