astro-screen.co.uk - The Largest Bittorent System Login   |    Register
Latest Articles
Most searched
Hot torrents
Movie Torrents
View Torrent Info: Incredibles 2 (2018) [720p] [YTS] [YIFY]
View Torrent Info: Alpha (2018) [720p] [YTS] [YIFY]
View Torrent Info: BlacKkKlansman (2018) [720p] [YTS] [YIFY]
View Torrent Info: The Witch in the Window (2018) [720p] [YTS] [YIFY]
View Torrent Info: Christopher Robin (2018) [720p] [YTS] [YIFY]
View Torrent Info: The Scorpion King: Book of Souls (2018) [720p] [YTS] [YIFY]
View Torrent Info: Juliet, Naked (2018) [720p] [YTS] [YIFY]
View Torrent Info: An Interview with God (2018) [720p] [YTS] [YIFY]
View Torrent Info: Adam Sandler: 100% Fresh (2018) [720p] [YTS] [YIFY]
View Torrent Info: The Dark (2018) [720p] [YTS] [YIFY]
Hot torrents
TV Torrents
View Torrent Info: Supergirl.S04E02.HDTV.x264-SVA[eztv]
View Torrent Info: Arrow.S07E02.HDTV.x264-SVA[eztv]
View Torrent Info: DCs.Legends.of.Tomorrow.S04E01.HDTV.x264-SVA[eztv]
View Torrent Info: The.Flash.2014.S05E03.HDTV.x264-SVA[eztv]
View Torrent Info: The.Big.Bang.Theory.S12E06.HDTV.x264-SVA[eztv]
View Torrent Info: the.last.ship.s05e07.webrip.x264-tbs[eztv]
View Torrent Info: Titans.2018.S01E03.WEB.x264-PHOENiX[eztv]
View Torrent Info: The.Walking.Dead.S09E03.HDTV.x264-SVA[eztv]
View Torrent Info: family.guy.s17e04.web.x264-tbs[eztv]
View Torrent Info: Supergirl.S04E02.XviD-AFG[eztv]
astro-screen.co.uk > Categories > Movies torrents > Biography torrents


Browse Movies torrents

Elvis.1979.720p.BluRay.x264-x0r[PRiME] torrent



Download torrent: Magnet link Bookmark Torrent: Elvis.1979.720p.BluRay.x264-x0r[PRiME] Download Elvis.1979.720p.BluRay.x264-x0r[PRiME] torrent (magnet link)
Info hash: 537B90E8BC973844DDE4302801BA189F5E24B030
Category: Categories > Movies torrents > Biography torrents
Trackers:
18    View all torrent trackers >
Health:
 seeds: 9 ,  leechers: 2 |  Update >
Torrent language:  
Total Size: 3.23 GB
Torrent status: Added by trusted uploader Added by trusted uploader Trusted Uploader Site Friend Superman Sun
Uploader: Trusted Uploader Site Friend Superman Sun
 

Download Elvis.1979.720p.BluRay.x264-x0r[PRiME] via Magnet Link




Torrent Description


Elvis.1979.720p.BluRay.x264-x0r[PRiME]

ImDb: http://www.imdb.com/title/tt0079103



Complete name : Elvis.1979.720p.BluRay.x264-x0r[PRiME].mkv
Format : Matroska
Format version : Version 4 / Version 2
File size : 3.23 GiB
Duration : 2 h 48 min
Overall bit rate : 2 753 kb/s
Movie name : Elvis.1979.720p.BluRay.x264-x0r
Encoded date : UTC 2017-04-29 14:30:53
Writing application : mkvmerge v7.7.0 ('Six Voices') 64bit built on Mar 1 2015 01:50:05
Writing library : libebml v1.3.1 + libmatroska v1.4.2

Video
ID : 1
Format : AVC
Format/Info : Advanced Video Codec
Format profile : [email protected]
Format settings, CABAC : Yes
Format settings, ReFrames : 8 frames
Codec ID : V_MPEG4/ISO/AVC
Duration : 2 h 48 min
Bit rate : 2 560 kb/s
Width : 1 280 pixels
Height : 720 pixels
Display aspect ratio : 16:9
Frame rate mode : Constant
Frame rate : 23.976 (24000/1001) FPS
Color space : YUV
Chroma subsampling : 4:2:0
Bit depth : 8 bits
Scan type : Progressive
Bits/(Pixel*Frame) : 0.116
Stream size : 3.01 GiB (93%)
Writing library : x264 core 130 r2273 b3065e6
Encoding settings : cabac=1 / ref=8 / deblock=1:-2:-2 / analyse=0x3:0x133 / me=umh / subme=10 / psy=1 / psy_rd=1.00:0.25 / mixed_ref=0 / me_range=64 / chroma_me=1 / trellis=2 / 8x8dct=1 / cqm=0 / deadzone=6,6 / fast_pskip=0 / chroma_qp_offset=-4 / threads=12 / lookahead_threads=1 / sliced_threads=0 / nr=0 / decimate=0 / interlaced=0 / bluray_compat=0 / constrained_intra=0 / bframes=4 / b_pyramid=2 / b_adapt=2 / b_bias=0 / direct=3 / weightb=1 / open_gop=0 / weightp=2 / keyint=240 / keyint_min=24 / scenecut=40 / intra_refresh=0 / rc_lookahead=10 / rc=2pass / mbtree=1 / bitrate=2560 / ratetol=1.0 / qcomp=0.00 / qpmin=0 / qpmax=69 / qpstep=4 / cplxblur=20.0 / qblur=0.5 / vbv_maxrate=20000 / vbv_bufsize=25000 / nal_hrd=none / ip_ratio=1.10 / aq=1:1.00
Language : English
Default : Yes
Forced : No
Color range : Limited
Color primaries : BT.709
Transfer characteristics : BT.709
Matrix coefficients : BT.709

Audio
ID : 2
Format : AC-3
Format/Info : Audio Coding 3
Mode extension : CM (complete main)
Format settings, Endianness : Big
Codec ID : A_AC3
Duration : 2 h 48 min
Bit rate mode : Constant
Bit rate : 192 kb/s
Channel(s) : 2 channels
Channel positions : Front: L R
Sampling rate : 48.0 kHz
Frame rate : 31.250 FPS (1536 spf)
Compression mode : Lossy
Stream size : 231 MiB (7%)
Title : Stereo
Language : English
Default : Yes
Forced : No

Text
ID : 3
Format : UTF-8
Codec ID : S_TEXT/UTF8
Codec ID/Info : UTF-8 Plain Text
Duration : 2 h 47 min
Bit rate : 65 b/s
Count of elements : 2040
Stream size : 80.1 KiB (0%)
Language : English
Default : Yes
Forced : No

Menu
00:00:00.000 : en:Chapter 1
00:16:14.557 : en:Chapter 2
00:34:37.367 : en:Chapter 3
00:45:47.244 : en:Chapter 4
01:01:10.083 : en:Chapter 5
01:14:19.663 : en:Chapter 6
01:23:49.066 : en:Chapter 7
01:42:16.839 : en:Chapter 8
01:59:28.870 : en:Chapter 9
02:11:04.315 : en:Chapter 10
02:24:05.428 : en:Chapter 11
02:36:32.466 : en:Chapter 12




Click Image To View Full Size


Click To View Screenshot
Click To View Screenshot
Click To View Screenshot



#Simmoncelli -> To avoid fakes, ALWAYS check that the torrent was added on astro-screen.co.uk by Simmoncelli

http://astro-screen.co.uk/




Comments (please add your comment)
No comments



Home - Browse Torrents - Upload Torrent - Stat - Forum - FAQ - Login
astro-screen.co.uk is in compliance with copyrights
2006-2018 astro-screen.co.uk
SitemapApakah Ini Cinta | Guerra fra galassie | Chitchana Yukitsukai Sugar Hijos de la anarquía | Katekyo Hitman Reborn! | Regarder