astro-screen.co.uk - The Largest Bittorent System Login   |    Register
Latest Articles
Most searched
Hot torrents
Movie Torrents
View Torrent Info: Incredibles 2 (2018) [720p] [YTS] [YIFY]
View Torrent Info: Alpha (2018) [720p] [YTS] [YIFY]
View Torrent Info: BlacKkKlansman (2018) [720p] [YTS] [YIFY]
View Torrent Info: The Witch in the Window (2018) [720p] [YTS] [YIFY]
View Torrent Info: Christopher Robin (2018) [720p] [YTS] [YIFY]
View Torrent Info: The Scorpion King: Book of Souls (2018) [720p] [YTS] [YIFY]
View Torrent Info: Juliet, Naked (2018) [720p] [YTS] [YIFY]
View Torrent Info: An Interview with God (2018) [720p] [YTS] [YIFY]
View Torrent Info: Adam Sandler: 100% Fresh (2018) [720p] [YTS] [YIFY]
View Torrent Info: The Dark (2018) [720p] [YTS] [YIFY]
Hot torrents
TV Torrents
View Torrent Info: Supergirl.S04E02.HDTV.x264-SVA[eztv]
View Torrent Info: Arrow.S07E02.HDTV.x264-SVA[eztv]
View Torrent Info: DCs.Legends.of.Tomorrow.S04E01.HDTV.x264-SVA[eztv]
View Torrent Info: The.Flash.2014.S05E03.HDTV.x264-SVA[eztv]
View Torrent Info: The.Big.Bang.Theory.S12E06.HDTV.x264-SVA[eztv]
View Torrent Info: the.last.ship.s05e07.webrip.x264-tbs[eztv]
View Torrent Info: Titans.2018.S01E03.WEB.x264-PHOENiX[eztv]
View Torrent Info: The.Walking.Dead.S09E03.HDTV.x264-SVA[eztv]
View Torrent Info: family.guy.s17e04.web.x264-tbs[eztv]
View Torrent Info: Supergirl.S04E02.XviD-AFG[eztv]
astro-screen.co.uk > Categories > Movies torrents > Biography torrents


Browse Movies torrents

Hacksaw.Ridge.2016.1080p.10bit.HDR.BluRay.7.1.x265.HEVC-MZABI[PRiME] torrent



Download torrent: Magnet link Bookmark Torrent: Hacksaw.Ridge.2016.1080p.10bit.HDR.BluRay.7.1.x265.HEVC-MZABI[PRiME] Download Hacksaw.Ridge.2016.1080p.10bit.HDR.BluRay.7.1.x265.HEVC-MZABI[PRiME] torrent (magnet link)
Info hash: 525953C1C0B769FB5E9FE325D6B1B2A0C30B3AA6
Category: Categories > Movies torrents > Biography torrents
Trackers:
18    View all torrent trackers >
Health:
 seeds: 9 ,  leechers: 12 |  Update >
Torrent language:  
Total Size: 5.44 GB
Torrent status: Added by trusted uploader Added by trusted uploader Trusted Uploader Site Friend Superman Sun
Uploader: Trusted Uploader Site Friend Superman Sun
 

Download Hacksaw.Ridge.2016.1080p.10bit.HDR.BluRay.7.1.x265.HEVC-MZABI[PRiME] via Magnet Link




Torrent Description


Hacksaw.Ridge.2016.1080p.10bit.HDR.BluRay.7.1.x265.HEVC-MZABI[PRiME]

ImDb: http://www.imdb.com/title/tt2119532



Complete name : Hacksaw.Ridge.2016.1080p.10bit.HDR.BluRay.7.1.x265.HEVC-MZABI[PRiME].mkv
Format : Matroska
Format version : Version 4 / Version 2
File size : 5.44 GiB
Duration : 2 h 19 min
Overall bit rate : 5 586 kb/s
Encoded date : UTC 2017-04-24 18:39:42
Writing application : mkvmerge v9.6.0 ('Slave To Your Mind') 64bit
Writing library : libebml v1.3.4 + libmatroska v1.4.5

Video
ID : 1
Format : HEVC
Format/Info : High Efficiency Video Coding
Format profile : Main [email protected]@Main
Codec ID : V_MPEGH/ISO/HEVC
Duration : 2 h 19 min
Bit rate : 4 999 kb/s
Width : 1 920 pixels
Height : 806 pixels
Display aspect ratio : 2.40:1
Frame rate mode : Constant
Frame rate : 23.976 (24000/1001) FPS
Original frame rate : 23.976 (23976/1000) FPS
Color space : YUV
Chroma subsampling : 4:2:0
Bit depth : 10 bits
Bits/(Pixel*Frame) : 0.135
Stream size : 4.87 GiB (90%)
Title : HEVC x265 10bit Video / 6000 kbps / 1080p / 23.976 fps / Main 10 Profile 4
Writing library : x265 1.9:[Linux][GCC 4.6.2][64 bit] 10bit
Encoding settings : wpp / ctu=64 / min-cu-size=8 / max-tu-size=32 / tu-intra-depth=1 / tu-inter-depth=1 / me=1 / subme=2 / merange=57 / no-rect / no-amp / max-merge=2 / temporal-mvp / no-early-skip / rdpenalty=0 / no-tskip / no-tskip-fast / strong-intra-smoothing / no-lossless / no-cu-lossless / no-constrained-intra / fast-intra / no-open-gop / no-temporal-layers / interlace=0 / keyint=250 / min-keyint=23 / scenecut=40 / rc-lookahead=15 / lookahead-slices=5 / bframes=4 / bframe-bias=0 / b-adapt=2 / ref=3 / limit-refs=3 / no-limit-modes / weightp / no-weightb / aq-mode=1 / qg-size=32 / aq-strength=1.00 / cbqpoffs=0 / crqpoffs=0 / rd=2 / psy-rd=2.00 / rdoq-level=0 / psy-rdoq=0.00 / signhide / deblock / sao / no-sao-non-deblock / b-pyramid / cutree / no-intra-refresh / rc=2 / pass / bitrate=5000 / qcomp=0.60 / qpmin=0 / qpmax=51 / qpstep=4 / cplxblur=20.0 / qblur=0.5 / ipratio=1.40 / pbratio=1.30
Default : Yes
Forced : No
Color range : Limited
Color primaries : BT.2020
Transfer characteristics : SMPTE ST 2084
Matrix coefficients : BT.2020 non-constant

Audio
ID : 2
Format : AAC
Format/Info : Advanced Audio Codec
Format profile : LC
Codec ID : A_AAC
Duration : 2 h 19 min
Bit rate : 576 kb/s
Channel(s) : 7 channels
Channel(s)_Original : 8 channels
Channel positions : Front: L C R, Side: L R, Back: L R, LFE
Sampling rate : 48.0 kHz
Frame rate : 46.875 FPS (1024 spf)
Compression mode : Lossy
Delay relative to video : 9 ms
Stream size : 582 MiB (10%)
Title : LC-AAC / 7.1 / 48 kHz
Language : English
Default : No
Forced : No

Text #1
ID : 3
Format : UTF-8
Codec ID : S_TEXT/UTF8
Codec ID/Info : UTF-8 Plain Text
Duration : 2 h 8 min
Bit rate : 48 b/s
Count of elements : 1342
Stream size : 46.2 KiB (0%)
Language : English
Default : No
Forced : No

Text #2
ID : 4
Format : UTF-8
Codec ID : S_TEXT/UTF8
Codec ID/Info : UTF-8 Plain Text
Duration : 2 h 9 min
Bit rate : 56 b/s
Count of elements : 1655
Stream size : 53.3 KiB (0%)
Language : English
Default : No
Forced : No

Text #3
ID : 5
Format : UTF-8
Codec ID : S_TEXT/UTF8
Codec ID/Info : UTF-8 Plain Text
Duration : 2 h 10 min
Bit rate : 73 b/s
Count of elements : 1451
Stream size : 70.6 KiB (0%)
Language : Arabic
Default : No
Forced : No

Menu
00:00:00.000 : en:00:00:00.000
00:09:18.766 : en:00:09:18.766
00:18:41.996 : en:00:18:41.996
00:26:34.510 : en:00:26:34.510
00:33:00.562 : en:00:33:00.562
00:40:04.152 : en:00:40:04.152
00:50:07.212 : en:00:50:07.212
00:57:01.543 : en:00:57:01.543
01:04:21.649 : en:01:04:21.649
01:17:50.207 : en:01:17:50.207
01:23:58.700 : en:01:23:58.700
01:31:21.726 : en:01:31:21.726
01:39:02.812 : en:01:39:02.812
01:46:07.569 : en:01:46:07.569
01:59:48.306 : en:01:59:48.306
02:07:13.292 : en:02:07:13.292




Click Image To View Full Size


Click To View Screenshot
Click To View Screenshot
Click To View Screenshot



#Simmoncelli -> To avoid fakes, ALWAYS check that the torrent was added on astro-screen.co.uk by Simmoncelli

http://astro-screen.co.uk/




Comments (please add your comment)
No comments



Home - Browse Torrents - Upload Torrent - Stat - Forum - FAQ - Login
astro-screen.co.uk is in compliance with copyrights
2006-2018 astro-screen.co.uk
SitemapWatch movie | Descargar APK | MOTEUR CENTRALISATION DE PORTE RENAULT Espace 3 Clio 6025001797 7701039565 Máy tính bảng Apple iPad Air 2 Cellular - 64GB, Wifi + 3G/ 4G, 9.7 inch | Bennington Weather Jacket Raincover Deluxe Regenüberzug Golfbag UVP € 59,95 | Kevin Guthrie