astro-screen.co.uk - The Largest Bittorent System Login   |    Register
Latest Articles
Most searched
Hot torrents
Movie Torrents
View Torrent Info: Mowgli: Legend of the Jungle (2018) [720p] [YTS] [YIFY]
View Torrent Info: Goosebumps 2: Haunted Halloween (2018) [720p] [YTS] [YIFY]
View Torrent Info: Assassination Nation (2018) [720p] [YTS] [YIFY]
View Torrent Info: Asher (2018) [720p] [YTS] [YIFY]
View Torrent Info: The Mermaid: Lake of the Dead (2018) [720p] [YTS] [YIFY]
View Torrent Info: Under the Silver Lake (2018) [720p] [YTS] [YIFY]
View Torrent Info: The Festival (2018) [720p] [YTS] [YIFY]
View Torrent Info: Alla vet (2018) [720p] [YTS] [YIFY]
View Torrent Info: Born Racer (2018) [720p] [YTS] [YIFY]
View Torrent Info: Cinderella: The Enchanted Beginning (2018) [720p] [YTS] [YIFY]
Hot torrents
TV Torrents
View Torrent Info: The.Flash.2014.S05E08.HDTV.x264-KILLERS[eztv]
View Torrent Info: Arrow.S07E08.HDTV.x264-SVA[eztv]
View Torrent Info: The.Big.Bang.Theory.S12E10.HDTV.x264-SVA[eztv]
View Torrent Info: The.Flash.2014.S05E09.HDTV.x264-SVA[eztv]
View Torrent Info: DCs.Legends.of.Tomorrow.S04E07.HDTV.x264-SVA[eztv]
View Torrent Info: The.Good.Doctor.S02E10.HDTV.x264-SVA[eztv]
View Torrent Info: Vikings.S05E12.WEBRip.x264-ION10[eztv]
View Torrent Info: Supernatural.S14E08.HDTV.x264-SVA[eztv]
View Torrent Info: the.gifted.s02e09.web.x264-tbs[eztv]
View Torrent Info: Young.Sheldon.S02E10.HDTV.x264-KILLERS[eztv]
astro-screen.co.uk > Categories > Movies torrents > Biography torrents


Browse Movies torrents

Rudy.1993.720p.BluRay.x264-x0r[PRiME] torrent



Download torrent: Magnet link Bookmark Torrent: Rudy.1993.720p.BluRay.x264-x0r[PRiME] Download Rudy.1993.720p.BluRay.x264-x0r[PRiME] torrent (magnet link)
Info hash: 198A74EC9D89FB76ACB069F9F30E58FAA96196D1
Category: Categories > Movies torrents > Biography torrents
Trackers:
18    View all torrent trackers >
Health:
 seeds: 1 ,  leechers: 1 |  Update >
Torrent language:  
Total Size: 2.40 GB
Torrent status: Added by trusted uploader Added by trusted uploader Trusted Uploader Site Friend Superman Sun
Uploader: Trusted Uploader Site Friend Superman Sun
 

Download Rudy.1993.720p.BluRay.x264-x0r[PRiME] via Magnet Link




Torrent Description


Rudy.1993.720p.BluRay.x264-x0r[PRiME]

ImDb: http://www.imdb.com/title/tt0108002



Complete name : Rudy.1993.720p.BluRay.x264-x0r[PRiME].mkv
Format : Matroska
Format version : Version 4 / Version 2
File size : 2.40 GiB
Duration : 1 h 53 min
Overall bit rate : 3 009 kb/s
Movie name : Rudy.1993.720p.BluRay.x264-x0r
Encoded date : UTC 2017-05-03 13:56:09
Writing application : mkvmerge v7.7.0 ('Six Voices') 64bit built on Mar 1 2015 01:50:05
Writing library : libebml v1.3.1 + libmatroska v1.4.2

Video
ID : 1
Format : AVC
Format/Info : Advanced Video Codec
Format profile : [email protected]
Format settings, CABAC : Yes
Format settings, ReFrames : 8 frames
Codec ID : V_MPEG4/ISO/AVC
Duration : 1 h 53 min
Bit rate : 2 560 kb/s
Width : 1 280 pixels
Height : 720 pixels
Display aspect ratio : 16:9
Frame rate mode : Constant
Frame rate : 23.976 FPS
Color space : YUV
Chroma subsampling : 4:2:0
Bit depth : 8 bits
Scan type : Progressive
Bits/(Pixel*Frame) : 0.116
Stream size : 2.04 GiB (85%)
Writing library : x264 core 130 r2273 b3065e6
Encoding settings : cabac=1 / ref=8 / deblock=1:-2:-2 / analyse=0x3:0x133 / me=umh / subme=10 / psy=1 / psy_rd=1.00:0.25 / mixed_ref=0 / me_range=64 / chroma_me=1 / trellis=2 / 8x8dct=1 / cqm=0 / deadzone=6,6 / fast_pskip=0 / chroma_qp_offset=-4 / threads=12 / lookahead_threads=1 / sliced_threads=0 / nr=0 / decimate=0 / interlaced=0 / bluray_compat=0 / constrained_intra=0 / bframes=4 / b_pyramid=2 / b_adapt=2 / b_bias=0 / direct=3 / weightb=1 / open_gop=0 / weightp=2 / keyint=240 / keyint_min=24 / scenecut=40 / intra_refresh=0 / rc_lookahead=10 / rc=2pass / mbtree=1 / bitrate=2560 / ratetol=1.0 / qcomp=0.00 / qpmin=0 / qpmax=69 / qpstep=4 / cplxblur=20.0 / qblur=0.5 / vbv_maxrate=20000 / vbv_bufsize=25000 / nal_hrd=none / ip_ratio=1.10 / aq=1:1.00
Language : English
Default : Yes
Forced : No
Color range : Limited
Color primaries : BT.709
Transfer characteristics : BT.709
Matrix coefficients : BT.709

Audio
ID : 2
Format : AC-3
Format/Info : Audio Coding 3
Mode extension : CM (complete main)
Format settings, Endianness : Big
Codec ID : A_AC3
Duration : 1 h 53 min
Bit rate mode : Constant
Bit rate : 448 kb/s
Channel(s) : 6 channels
Channel positions : Front: L C R, Side: L R, LFE
Sampling rate : 48.0 kHz
Frame rate : 31.250 FPS (1536 spf)
Compression mode : Lossy
Stream size : 365 MiB (15%)
Title : Surround
Language : English
Default : No
Forced : No

Text
ID : 3
Format : UTF-8
Codec ID : S_TEXT/UTF8
Codec ID/Info : UTF-8 Plain Text
Duration : 1 h 49 min
Bit rate : 65 b/s
Count of elements : 1483
Stream size : 53.0 KiB (0%)
Language : English
Default : Yes
Forced : No

Menu
00:00:00.000 : en:Chapter 1
00:06:17.208 : en:Chapter 2
00:12:03.345 : en:Chapter 3
00:21:21.695 : en:Chapter 4
00:28:56.607 : en:Chapter 5
00:34:35.696 : en:Chapter 6
00:41:01.957 : en:Chapter 7
00:47:11.034 : en:Chapter 8
00:54:15.959 : en:Chapter 9
01:02:01.382 : en:Chapter 10
01:06:36.657 : en:Chapter 11
01:12:45.650 : en:Chapter 12
01:20:40.625 : en:Chapter 13
01:27:30.618 : en:Chapter 14
01:33:18.549 : en:Chapter 15
01:44:08.323 : en:Chapter 16




Click Image To View Full Size


Click To View Screenshot
Click To View Screenshot
Click To View Screenshot



#Simmoncelli -> To avoid fakes, ALWAYS check that the torrent was added on astro-screen.co.uk by Simmoncelli

http://astro-screen.co.uk/




Comments (please add your comment)
No comments



Home - Browse Torrents - Upload Torrent - Stat - Forum - FAQ - Login
astro-screen.co.uk is in compliance with copyrights
2006-2018 astro-screen.co.uk
SitemapOglądaj | Red Sparrow | Sloppy Gagging Deepthroat and Huge Facial after 2016 New Year Party リトルガールストライク Vol.003 | [Yousoro] SHIBUYA NOTE Presents Aqours Tokyo Dome e no Michi ~ Omoi yo Hitotsu ni Nare (NHK World Premium 1280x720 x264 AAC) [D94B2741].mkv | Background & PSD Source