astro-screen.co.uk - The Largest Bittorent System Login   |    Register
Latest Articles
Most searched
Hot torrents
Movie Torrents
View Torrent Info: Black Mirror: Bandersnatch (2018) [720p] [YTS] [YIFY]
View Torrent Info: Wheely (2018) [720p] [YTS] [YIFY]
View Torrent Info: Golden Job (2018) [720p] [YTS] [YIFY]
View Torrent Info: The Oath (2018) [720p] [YTS] [YIFY]
View Torrent Info: Frenzy (2018) [720p] [YTS] [YIFY]
View Torrent Info: Attraction (2017) [720p] [YTS] [YIFY]
View Torrent Info: The Dragon Unleashed (2019) [720p] [YTS] [YIFY]
View Torrent Info: The Christmas Contract (2018) [720p] [YTS] [YIFY]
View Torrent Info: The Secrets of Gravity: In the Footsteps of Albert Einstein (2016) [720p] [YTS] [YIFY]
View Torrent Info: Pandora (2016) [720p] [YTS] [YIFY]
Hot torrents
TV Torrents
View Torrent Info: Vikings.S05E15.HDTV.x264-BATV[eztv]
View Torrent Info: the.orville.s02e01.web.x264-tbs[eztv]
View Torrent Info: The.ABC.Murders.S01E03.HDTV.x264-KETTLE[eztv]
View Torrent Info: Midnight.Texas.S02E09.HDTV.x264-KILLERS[eztv]
View Torrent Info: Vikings.S05E15.iNTERNAL.480p.x264-mSD[eztv]
View Torrent Info: the.abc.murders.s01e02.hdtv.x264-mtb[eztv]
View Torrent Info: the.abc.murders.s01e01.hdtv.x264-mtb[eztv]
View Torrent Info: Ray.Donovan.S06E10.WEB.x264-PHOENiX[eztv]
View Torrent Info: Outlander.S04E09.480p.x264-mSD[eztv]
View Torrent Info: van.helsing.s03e13.web.x264-tbs[eztv]
astro-screen.co.uk > Categories > Movies torrents > HEVC/x265 torrents


Browse Movies torrents

Khosla Ka Ghosla! (2006) Hindi BluRay x265 10Bit HEVC 6CH Link2Share torrent



Download torrent: Download Khosla Ka Ghosla! (2006) Hindi  BluRay x265 10Bit HEVC 6CH Link2Share torrent Magnet link Bookmark Torrent: Khosla Ka Ghosla! (2006) Hindi  BluRay x265 10Bit HEVC 6CH Link2Share Khosla Ka Ghosla! (2006) Hindi BluRay x265 10Bit HEVC 6CH Link2Share torrent | if not working, try instead: Magnet Link
Info hash: 60F504C466E3B1D14EF2C1956AFFA231E8C80BBF
Category: Categories > Movies torrents > HEVC/x265 torrents
Trackers:
21    View all torrent trackers >
Health:
 seeds: 4 ,  leechers: 2 |  Update >
Total Size: 1.70 GB
Torrent status: Added by trusted uploader Added by trusted uploader Trusted Uploader Site Friend Superman Sun
Uploader: Trusted Uploader Site Friend Superman Sun
Torrent added: 2019-01-01 09:12:15
 

Download Khosla Ka Ghosla! (2006) Hindi  BluRay x265 10Bit HEVC 6CH Link2Share torrent if not working, try downloading torrent using Download Khosla Ka Ghosla! (2006) Hindi  BluRay x265 10Bit HEVC 6CH Link2Share via Magnet Link




Torrent Description

Quote:

Khosla Ka Ghosla! (2006) Hindi BluRay x265 10Bit HEVC 6CH Link2Share




Quote:



Quote:

Format : Matroska
Format version : Version 4
File size : 1.71 GiB
Duration : 2 h 4 min
Overall bit rate : 1 977 kb/s
Encoded date : UTC 2019-01-01 06:37:11
Writing application : mkvmerge v24.0.0 ('Beyond The Pale') 32-bit
Writing library : libebml v1.3.6 + libmatroska v1.4.9
Encoding Gui : Hybrid 2018.12.09.1




Quote:

Video
ID : 1
Format : HEVC
Format/Info : High Efficiency Video Coding
Format profile : Main [email protected]@High
Codec ID : V_MPEGH/ISO/HEVC
Duration : 2 h 4 min
Bit rate : 1 689 kb/s
Width : 1 920 pixels
Height : 1 080 pixels
Display aspect ratio : 16:9
Frame rate mode : Constant
Frame rate : 25.000 FPS
Color space : YUV
Chroma subsampling : 4:2:0
Bit depth : 10 bits
Bits/(Pixel*Frame) : 0.033
Stream size : 1.47 GiB (85%)
Writing library : x265 2.9+9-f74003e88622:[Windows][GCC 8.2.0][64 bit] 10bit
Encoding settings : cpuid=1111039 / frame-threads=3 / numa-pools=8 / wpp / no-pmode / no-pme / no-psnr / no-ssim / log-level=2 / input-csp=1 / input-res=1920x1080 / interlace=0 / total-frames=0 / level-idc=62 / high-tier=1 / uhd-bd=0 / ref=3 / no-allow-non-conformance / no-repeat-headers / annexb / no-aud / no-hrd / info / hash=0 / no-temporal-layers / no-open-gop / min-keyint=25 / keyint=250 / gop-lookahead=0 / bframes=4 / b-adapt=2 / b-pyramid / bframe-bias=0 / rc-lookahead=20 / lookahead-slices=0 / scenecut=40 / radl=0 / no-intra-refresh / ctu=64 / min-cu-size=8 / no-rect / no-amp / max-tu-size=32 / tu-inter-depth=1 / tu-intra-depth=1 / limit-tu=0 / rdoq-level=2 / dynamic-rd=0.00 / ssim-rd / signhide / no-tskip / nr-intra=0 / nr-inter=0 / no-constrained-intra / strong-intra-smoothing / max-merge=2 / limit-refs=0 / limit-modes / me=1 / subme=2 / merange=57 / temporal-mvp / weightp / no-weightb / no-analyze-src-pics / deblock=-1:-1 / sao / no-sao-non-deblock / rd=3 / no-early-skip / rskip / no-fast-intra / no-tskip-fast / no-cu-lossless / no-b-intra / no-splitrd-skip / rdpenalty=0 / psy-rd=2.50 / psy-rdoq=10.00 / no-rd-refine / no-lossless / cbqpoffs=-2 / crqpoffs=-2 / rc=abr / bitrate=1700 / qcomp=0.60 / qpstep=4 / stats-write=0 / stats-read=0 / vbv-maxrate=800000 / vbv-bufsize=800000 / vbv-init=0.9 / ipratio=1.40 / pbratio=1.30 / aq-mode=1 / aq-strength=0.00 / cutree / zone-count=0 / no-strict-cbr / qg-size=8 / no-rc-grain / qpmax=69 / qpmin=0 / no-const-vbv / sar=0 / overscan=0 / videoformat=5 / range=0 / colorprim=2 / transfer=2 / colormatrix=1 / chromaloc=0 / display-window=0 / max-cll=0,0 / min-luma=0 / max-luma=1023 / log2-max-poc-lsb=8 / vui-timing-info / vui-hrd-info / slices=1 / opt-qp-pps / opt-ref-list-length-pps / no-multi-pass-opt-rps / scenecut-bias=0.05 / no-opt-cu-delta-qp / no-aq-motion / no-hdr / no-hdr-opt / no-dhdr10-opt / no-idr-recovery-sei / analysis-reuse-level=5 / scale-factor=0 / refine-intra=0 / refine-inter=0 / refine-mv=0 / limit-sao / ctu-info=0 / no-lowpass-dct / refine-mv-type=0 / copy-pic=1 / max-ausize-factor=1.0 / no-dynamic-refine / no-single-sei
Default : Yes
Forced : Yes
Color range : Limited
Matrix coefficients : BT.709




Quote:

Audio
ID : 2
Format : AC-3
Format/Info : Audio Coding 3
Commercial name : Dolby Digital
Codec ID : A_AC3
Duration : 2 h 4 min
Bit rate mode : Constant
Bit rate : 256 kb/s
Channel(s) : 6 channels
Channel layout : L R C LFE Ls Rs
Sampling rate : 48.0 kHz
Frame rate : 31.250 FPS (1536 SPF)
Bit depth : 16 bits
Compression mode : Lossy
Stream size : 227 MiB (13%)
Title : ~anubis
Language : Hindi
Service kind : Complete Main
Default : Yes
Forced : No

Text
ID : 3
Format : PGS
Muxing mode : zlib
Codec ID : S_HDMV/PGS
Codec ID/Info : Picture based subtitle format used on BDs/HD-DVDs
Duration : 1 h 59 min
Bit rate : 69.6 kb/s
Count of elements : 3762
Stream size : 59.7 MiB (3%)
Default : Yes
Forced : Yes





Quote:

Screenshots






Quote:

All our releases encode with time consuming 2nd pass and 10Bit colours to
delever best in quality under low file size.
It will take me Hours to encode and it only takes 8 seconds to say thanks



Code:

Souce :Khosla Ka Ghosla (2006) Hindi BluRay Dtone




#TheDeSTroYER -> To avoid fakes, ALWAYS check that the torrent was added on astro-screen.co.uk by TheDeSTroYER

http://astro-screen.co.uk/



Download Khosla Ka Ghosla! (2006) Hindi  BluRay x265 10Bit HEVC 6CH Link2Share torrent


Comments (please add your comment)
No comments



Home - Browse Torrents - Upload Torrent - Stat - Forum - FAQ - Login
astro-screen.co.uk is in compliance with copyrights
2006-2018 astro-screen.co.uk
SitemapMidnight, Texas - S2 E 7 | 50 Mixed Mailing Postage Bags Grey Pink Blue in 4 sizes | January 5, 2019 One Piece 380 | ПРИОРитетное Кино | Benedikt Erlingsson